#TITLE:3254 Techno Party;
#SUBTITLE:;
#ARTIST:Audition;
#TITLETRANSLIT:;
#SUBTITLETRANSLIT:;
#ARTISTTRANSLIT:;
#CREDIT:;
#BANNER:a-banner.PNG;
#BACKGROUND:a-bg1.png;
#LYRICSPATH:;
#CDTITLE:cdtitle.png;
#MUSIC:AuditionEU-12-Party-Audition-3254-Techno-Party.mp3;
#OFFSET:0.000;
#SAMPLESTART:42.253;
#SAMPLELENGTH:12.000;
#SELECTABLE:YES;
#BPMS:0.000=142.006,4.000=141.999,5.000=142.006,9.000=141.999,10.000=142.006,14.000=141.999,15.000=142.006,19.000=141.999,20.000=142.006,24.000=141.999,25.000=142.006,29.000=141.999,31.000=142.006,35.000=141.999,36.000=142.006,40.000=141.999,41.000=142.006,45.000=141.999,47.000=142.006,51.000=141.999,52.000=142.006,56.000=141.999,57.000=142.006,112.000=141.999,113.000=142.006,115.000=141.999,116.000=142.006,117.000=141.999,118.000=142.006,119.000=141.999,120.000=142.006,121.000=141.999,122.000=142.006,123.000=141.999,124.000=142.006,125.000=141.999,126.000=142.006,127.000=141.999,128.000=142.006,129.000=141.999,130.000=142.006,131.000=141.999,132.000=142.006,133.000=141.999,134.000=142.006,135.000=141.999,136.000=142.006,137.000=141.999,138.000=142.006,139.000=141.999,140.000=142.006,141.000=141.999,142.000=142.006,143.000=141.999,144.000=142.006,145.000=141.999,146.000=142.006,147.000=141.999,148.000=142.006,149.000=141.999,150.000=142.006,151.000=141.999,152.000=142.006,153.000=141.999,154.000=142.006,155.000=141.999,156.000=142.006,157.000=141.999,158.000=142.006,159.000=141.999,160.000=142.006,161.000=141.999,162.000=142.006,163.000=141.999,164.000=142.006,165.000=141.999,166.000=142.006,167.000=141.999,168.000=142.006,169.000=141.999,170.000=142.006,171.000=141.999,172.000=142.006,173.000=141.999,174.000=142.006,175.000=141.999,176.000=142.006,177.000=141.999,178.000=142.006,179.000=141.999,180.000=142.006,181.000=141.999,182.000=142.006,183.000=141.999,184.000=142.006,185.000=141.999,186.000=142.006,187.000=141.999,188.000=142.006,189.000=141.999,190.000=142.006,191.000=141.999,192.000=142.006,193.000=141.999,194.000=142.006,195.000=141.999,196.000=142.006,197.000=141.999,198.000=142.006,199.000=141.999,200.000=142.006,201.000=141.999,202.000=142.006,203.000=141.999,204.000=142.006,205.000=141.999,206.000=142.006,207.000=141.999,208.000=142.006,209.000=141.999,210.000=142.006,211.000=141.999,212.000=142.006,213.000=141.999,214.000=142.006,215.000=141.999,216.000=142.006,217.000=141.999,218.000=142.006,219.000=141.999,220.000=142.006,221.000=141.999,222.000=142.006,223.000=141.999,224.000=142.006,225.000=141.991,226.000=142.006,227.000=141.999,230.000=142.006,231.000=141.999,234.000=142.006,235.000=141.999,242.000=142.006,243.000=141.999,246.000=142.006,247.000=141.999,250.000=142.006,251.000=141.999,257.000=142.006,258.000=141.999,261.000=142.006,262.000=141.999,265.000=142.006,266.000=141.999,272.000=142.006,273.000=141.999,276.000=142.006,277.000=141.999,280.000=142.006,281.000=141.999,288.000=142.006,289.000=141.999,292.000=142.006,293.000=141.999,296.000=142.006,297.000=141.999,303.000=142.006,304.000=141.999,307.000=142.006,308.000=141.999,311.000=142.006,312.000=141.999,318.000=142.006,319.000=141.999,322.000=142.006,323.000=141.999,326.000=142.006,327.000=141.999,334.000=142.006,335.000=141.999,338.000=142.006,339.000=141.999,342.000=142.006,343.000=141.999,350.000=142.006,351.000=141.999,354.000=142.006,355.000=141.999,358.000=142.006,359.000=141.999,365.000=142.006,366.000=141.999,369.000=142.006,370.000=141.999,373.000=142.006,374.000=141.999,380.000=142.006,381.000=141.999,384.000=142.006,385.000=141.999,388.000=142.006,389.000=141.999,395.000=142.006,396.000=141.999,399.000=142.006,400.000=141.999,403.000=142.006,404.000=141.999,411.000=142.006,412.000=141.999,415.000=142.006,416.000=141.999,419.000=142.006,420.000=141.999,426.000=142.006,427.000=141.999,430.000=142.006,431.000=141.999,434.000=142.006,435.000=141.999,441.000=142.006,442.000=141.999,445.000=142.006,446.000=141.999,449.000=142.006,450.000=141.991,451.000=141.999,453.000=142.006,454.000=141.999,462.000=142.006,463.000=141.999,470.000=142.006,471.000=141.999,478.000=142.006,479.000=141.999,486.000=142.006,487.000=141.999,492.000=142.006,493.000=141.999,500.000=142.006,501.000=141.999,508.000=142.006,509.000=141.999,516.000=142.006,517.000=141.999,523.000=142.006,524.000=141.999,530.000=142.006,531.000=141.999,538.000=142.006,539.000=141.999,546.000=142.006,547.000=141.999,553.000=142.006,554.000=141.999,561.000=142.006,562.000=141.999,569.000=142.006,570.000=141.999,577.000=142.006,578.000=141.999,584.000=142.006,585.000=141.999,591.000=142.006,592.000=141.999,599.000=142.006,600.000=141.999,607.000=142.006,608.000=141.999,614.000=142.006,615.000=141.999,622.000=142.006,623.000=141.999,630.000=142.006,631.000=141.999,638.000=142.006,639.000=141.999,644.000=142.006,645.000=141.999,652.000=142.006,653.000=141.999,660.000=142.006,661.000=141.999,668.000=142.006,669.000=141.999,673.000=142.006,674.000=141.999,681.000=142.006,682.000=141.999,686.000=142.006,687.000=141.999,694.000=142.006,695.000=141.999;
#STOPS:;
#BGCHANGES:0.000=a-bg1.png=1.000=1=1=0,
1.063=AuditionEU-12-Party-Audition-3254-Techno-Party.avi=1.000=0=0=1,
687.000=a-bg2.png=1.000=0=0=1,
99999=-nosongbg-=1.000=0=0=0 // don't automatically add -songbackground-
;
// cache tags:
#FIRSTBEAT:54.250;
#LASTBEAT:686.750;
#SONGFILENAME:Songs/Music V.I.P ^_^/3254 Techno Party/AuditionEU-12-Party-Audition-3254-Techno-Party.sm;
#HASMUSIC:1;
#HASBANNER:1;
#MUSICLENGTH:295.809;
// end cache tags

//---------------dance-single - ----------------
#NOTES:
     dance-single:
     :
     Challenge:
     5:
     0.123,0.232,0.088,0.000,0.772,228.000,26.000,0.000,258.000,0.000:
0000
0000
0000
0000
,
0000
0000
0000
0000
,
0000
0000
0000
0000
,
0000
0000
0000
0000
,
0000
0000
0000
0000
,
0000
0000
0000
0000
,
0000
0000
0000
0000
,
0000
0000
0000
0000
,
0000
0000
0000
0000
,
0000
0000
0000
0000
,
0000
0000
0000
0000
,
0000
0000
0000
0000
,
0000
0000
0000
0000
,
0000
0000
0000
0000
0000
0000
0000
0000
0000
0M00
0000
0000
0000
00M0
0000
0000
,
0000
0M00
0000
0000
0000
0M00
0000
0000
0000
0M00
0000
0000
0000
000M
0000
0000
,
0000
00M0
0000
0000
0000
MM00
0000
0000
0000
0100
0000
0000
0000
0010
0000
0000
,
0000
0100
0000
0000
0000
0100
0000
0000
0000
0100
0000
0000
0000
0001
0000
0000
,
0000
0010
0000
0000
0000
1100
0000
0000
0000
0M00
0000
0000
0000
000M
0000
0000
,
0000
00M0
0000
0000
0000
0M00
0000
0000
0000
M000
0000
0000
0000
00M0
0000
0000
,
0000
000M
0000
0000
0000
MM00
0000
0000
0000
0100
0000
0000
0000
0001
0000
0000
,
0000
0010
0000
0000
0000
0100
0000
0000
0000
1000
0000
0000
0000
0010
0000
0000
,
0000
0001
0000
0000
0000
1100
0000
0000
0000
000M
0000
0000
0000
0M00
0000
0000
,
0000
000M
0000
0000
0000
0M00
0000
0000
0000
00M0
0000
0000
0000
00M0
0000
0000
,
0000
00M0
0000
0000
0000
MM00
0000
0000
0000
0001
0000
0000
0000
0100
0000
0000
,
0000
0001
0000
0000
0000
0100
0000
0000
0000
0010
0000
0000
0000
0010
0000
0000
,
0000
0010
0000
0000
0000
1100
0000
0000
0000
00M0
0000
0000
0000
M000
0000
0000
,
0000
00M0
0000
0000
0000
0M00
0000
0000
0000
00M0
0000
0000
0000
M000
0000
0000
,
0000
00M0
0000
0000
0000
MM00
0000
0000
0000
0010
0000
0000
0000
1000
0000
0000
,
0000
0010
0000
0000
0000
0100
0000
0000
0000
0010
0000
0000
0000
1000
0000
0000
,
0000
0010
0000
0000
0000
1100
0000
0000
0000
M000
0000
0000
0000
0M00
0000
0000
,
0000
000M
0000
0000
0000
00M0
0000
0000
0000
1000
0000
0000
0000
0100
0000
0000
,
0000
0001
0000
0000
0000
0010
0000
0000
0000
M000
0000
0000
0000
000M
0000
0000
,
0000
0M00
0000
0000
0000
MM00
0000
0000
0000
1000
0000
0000
0000
0001
0000
0000
,
0000
0100
0000
0000
0000
1100
0000
0000
0000
0M00
0000
0000
0000
000M
0000
0000
,
0000
M000
0000
0000
0000
0M00
0000
0000
0000
0100
0000
0000
0000
0001
0000
0000
,
0000
1000
0000
0000
0000
0100
0000
0000
0000
M000
0000
0000
0000
000M
0000
0000
,
0000
00M0
0000
0000
0000
00MM
0000
0000
0000
1000
0000
0000
0000
0001
0000
0000
,
0000
0010
0000
0000
0000
0011
0000
0000
0000
M000
0000
0000
0000
00M0
0000
0000
,
0000
00M0
0000
0M00
0000
0M00
0000
0000
0000
1000
0000
0000
0000
0010
0000
0000
,
0000
0010
0000
0100
0000
0100
0000
0000
0000
00M0
0000
0000
0000
00M0
0000
0000
,
0000
0M00
0000
M000
0000
MM00
0000
0000
0000
0010
0000
0000
0000
0010
0000
0000
,
0000
0100
0000
1000
0000
1100
0000
0000
0000
000M
0000
0000
0000
000M
0000
0000
,
0000
M000
0000
M000
0000
00M0
0000
0000
0000
0001
0000
0000
0000
0001
0000
0000
,
0000
1000
0000
1000
0000
0010
0000
0000
0000
0M00
0000
0000
0000
00M0
0000
0000
,
0000
000M
0000
M000
0000
00MM
0000
0000
0000
0100
0000
0000
0000
0010
0000
0000
,
0000
0001
0000
1000
0000
0011
0000
0000
0000
0000
0000
0000
0000
0000
0000
0000
,
0000
0000
0000
0000
0000
0000
0000
0000
0000
00M0
0000
000M
0000
0M00
0000
0000
,
0000
00M0
0000
M000
0000
0M00
0000
0000
0000
000M
0000
0000
0000
0M00
0000
0000
,
0000
M000
0000
0000
0000
00MM
0000
0000
0000
0010
0000
0001
0000
0100
0000
0000
,
0000
0010
0000
1000
0000
0100
0000
0000
0000
0001
0000
0000
0000
0100
0000
0000
,
0000
1000
0000
0000
0000
0011
0000
0000
0000
000M
0000
000M
0000
000M
0000
0000
,
0000
00M0
0000
0M00
0000
M000
0000
0000
0000
00M0
0000
0000
0000
000M
0000
0000
,
0000
0M00
0000
0000
0000
MM00
0000
0000
0000
0001
0000
0001
0000
0001
0000
0000
,
0000
0010
0000
0100
0000
1000
0000
0000
0000
0010
0000
0000
0000
0001
0000
0000
,
0000
0100
0000
0000
0000
1100
0000
0000
0000
0M00
0000
0000
0000
0M00
0000
0000
,
0000
M000
0000
00M0
0000
0000
0000
00M0
0000
0000
0000
0000
0000
M000
0000
0000
,
0000
MM00
0000
0000
0000
0000
0000
0000
0000
0100
0000
0000
0000
0100
0000
0000
,
0000
1000
0000
0010
0000
0000
0000
0010
0000
0000
0000
0000
0000
1000
0000
0000
,
0000
1100
0000
0000
0000
0000
0000
0000
0000
0M00
0000
0000
0000
0M00
0000
0000
,
0000
M000
0000
000M
0000
0000
0000
00M0
0000
0000
0000
0000
0000
M000
0000
0000
,
0000
MM00
0000
0000
0000
0000
0000
0000
0000
0100
0000
0000
0000
0100
0000
0000
,
0000
1000
0000
0001
0000
0000
0000
0010
0000
0000
0000
0000
0000
1000
0000
0000
,
0000
1100
0000
0000
0000
0000
0000
0000
0000
000M
0000
0000
0000
000M
0000
0000
,
0000
M000
0000
M000
0000
0M00
0000
00M0
0000
0000
0000
0000
0000
0M00
0000
0000
,
0000
00M0
0000
0000
0000
MM00
0000
0000
0000
0001
0000
0000
0000
0001
0000
0000
,
0000
1000
0000
1000
0000
0100
0000
0010
0000
0000
0000
0000
0000
0100
0000
0000
,
0000
0010
0000
0000
0000
1100
0000
0000
0000
M000
0000
0000
0000
00M0
0000
0000
,
0000
000M
0000
0M00
0000
M000
0000
00M0
0000
0000
0000
0000
0000
000M
0000
0000
,
0000
00M0
0000
0000
0000
00MM
0000
0000
0000
1000
0000
0000
0000
0010
0000
0000
,
0000
0001
0000
0100
0000
1000
0000
0010
0000
0000
0000
0000
0000
0001
0000
0000
,
0000
0010
0000
0000
0000
0011
0000
0000
0000
0M00
0000
0000
0000
M000
0000
0M00
,
0000
M000
0000
M000
0000
0000
0000
M000
0000
0000
0000
0000
0000
0M00
0000
0000
,
0000
000M
0000
0000
0000
00MM
0000
0000
0000
0100
0000
0000
0000
1000
0000
0100
,
0000
1000
0000
1000
0000
0000
0000
1000
0000
0000
0000
0000
0000
0100
0000
0000
,
0000
0001
0000
0000
0000
0011
0000
0000
0000
0M00
0000
0000
0000
000M
0000
M000
,
0000
00M0
0000
M000
0000
0000
0000
00M0
0000
0000
0000
0000
0000
0M00
0000
0000
,
0000
M000
0000
0000
0000
MM00
0000
0000
0000
0100
0000
0000
0000
0001
0000
1000
,
0000
0010
0000
1000
0000
0000
0000
0010
0000
0000
0000
0000
0000
0100
0000
0000
,
0000
1000
0000
0000
0000
1100
0000
0000
0000
0000
0000
0000
0000
0000
0000
0000
,
0000
0000
0000
0000
,
0000
0000
0000
0000
,
0000
0000
0000
0000
,
0000
0000
0000
0000
,
0000
0000
0000
0000
,
0000
0000
0000
0000
,
0000
0000
0000
0000
,
0000
0000
0000
0000
,
0000
0000
0000
0000
,
0000
0000
0000
0000
,
0000
0000
0000
0000
,
0000
0000
0000
0000
,
0000
0000
0000
0000
,
0000
0000
0000
0000
,
0000
0000
0000
0000
,
0000
0000
0000
0000
,
0000
0000
0000
0000
,
0000
0000
0000
0000
,
0000
0000
0000
0000
,
0000
0000
0000
0000
,
0000
0000
0000
0000
,
0000
0000
0000
0000
,
0000
0000
0000
0000
,
0000
0000
0000
0000
,
0000
0000
0000
0000
,
0000
0000
0000
0000
,
0000
0000
0000
0000
,
0000
0000
0000
0000
,
0000
0000
0000
0000
,
0000
0000
0000
0000
,
0000
0000
0000
0000
,
0000
0000
0000
0000
0000
0000
0000
0000
0000
0M00
0000
0000
0000
0M00
0000
0000
,
0000
0M00
0000
M000
0000
000M
0000
0000
0000
0100
0000
0000
0000
0100
0000
0000
,
0000
0100
0000
1000
0000
0001
0000
0000
0000
M000
0000
0000
0000
000M
0000
0000
,
0000
00M0
0000
0M00
0000
MM00
0000
0000
0000
1000
0000
0000
0000
0001
0000
0000
,
0000
0010
0000
0100
0000
1100
0000
0000
0000
0M00
0000
0000
0000
M000
0000
0000
,
0000
000M
0000
00M0
0000
00M0
0000
0000
0000
0100
0000
0000
0000
1000
0000
0000
,
0000
0001
0000
0010
0000
0010
0000
0000
0000
00M0
0000
0000
0000
000M
0000
0000
,
0000
0M00
0000
M000
0000
00MM
0000
0000
0000
0010
0000
0000
0000
0001
0000
0000
,
0000
0100
0000
1000
0000
0011
0000
0000
0000
0000
0000
0000
0000
0000
0000
0000
,
0000
0000
0000
0000
0000
0000
0000
0000
0000
0M00
0000
000M
0000
M000
0000
0000
,
0000
00M0
0000
0M00
0000
0M00
0000
0000
0000
M000
0000
0000
0000
00M0
0000
0000
,
0000
000M
0000
0000
0000
MM00
0000
0000
0000
0100
0000
0001
0000
1000
0000
0000
,
0000
0010
0000
0100
0000
0100
0000
0000
0000
1000
0000
0000
0000
0010
0000
0000
,
0000
0001
0000
0000
0000
1100
0000
0000
0000
0M00
0000
000M
0000
M000
0000
0000
,
0000
00M0
0000
000M
0000
000M
0000
0000
0000
0M00
0000
0000
0000
M000
0000
0000
,
0000
00M0
0000
0000
0000
MM00
0000
0000
0000
0100
0000
0001
0000
1000
0000
0000
,
0000
0010
0000
0001
0000
0001
0000
0000
0000
0100
0000
0000
0000
1000
0000
0000
,
0000
0010
0000
0000
0000
1100
0000
0000
0000
0M00
0000
0000
0000
0M00
0000
0000
,
0000
0M00
0000
000M
0000
0000
0000
M000
0000
0000
0000
0000
0000
00M0
0000
0000
,
0000
MM00
0000
0000
0000
0000
0000
0000
0000
0100
0000
0000
0000
0100
0000
0000
,
0000
0100
0000
0001
0000
0000
0000
1000
0000
0000
0000
0000
0000
0010
0000
0000
,
0000
1100
0000
0000
0000
0000
0000
0000
0000
00M0
0000
0000
0000
00M0
0000
0000
,
0000
M000
0000
000M
0000
0000
0000
0M00
0000
0000
0000
0000
0000
0M00
0000
0000
,
0000
MM00
0000
0000
0000
0000
0000
0000
0000
0010
0000
0000
0000
0010
0000
0000
,
0000
1000
0000
0001
0000
0000
0000
0100
0000
0000
0000
0000
0000
0100
0000
0000
,
0000
1100
0000
0000
0000
0000
0000
0000
0000
000M
0000
0000
0000
M000
0000
0000
,
0000
0M00
0000
00M0
0000
M000
0000
M000
0000
0000
0000
0000
0000
000M
0000
0000
,
0000
00M0
0000
0000
0000
00MM
0000
0000
0000
0001
0000
0000
0000
1000
0000
0000
,
0000
0100
0000
0010
0000
1000
0000
1000
0000
0000
0000
0000
0000
0001
0000
0000
,
0000
0010
0000
0000
0000
0011
0000
0000
0000
000M
0000
0000
0000
00M0
0000
0000
,
0000
M000
0000
M000
0000
00M0
0000
0M00
0000
0000
0000
000M
0000
0000
0000
0000
,
0000
00M0
0000
0000
0000
MM00
0000
0000
0000
0001
0000
0000
0000
0010
0000
0000
,
0000
1000
0000
1000
0000
0010
0000
0100
0000
0000
0000
0001
0000
0000
0000
0000
,
0000
0010
0000
0000
0000
1100
0000
0000
0000
000M
0000
0000
0000
M000
0000
00M0
,
0000
00M0
0000
0M00
0000
0000
0000
000M
0000
0000
0000
0000
0000
M000
0000
0000
,
0000
0M00
0000
0000
0000
00MM
0000
0000
0000
0001
0000
0000
0000
1000
0000
0010
,
0000
0010
0000
0100
0000
0000
0000
0001
0000
0000
0000
0000
0000
1000
0000
0000
,
0000
0100
0000
0000
0000
0011
0000
0000
0000
0M00
0000
0000
0000
M000
0000
0M00
,
0000
000M
0000
00M0
0000
0000
0000
00M0
0000
0000
0000
0000
0000
000M
0000
0000
,
0000
0M00
0000
0000
0000
MM00
0000
0000
0000
0100
0000
0000
0000
1000
0000
0100
,
0000
0001
0000
0010
0000
0000
0000
0010
0000
0000
0000
0000
0000
0001
0000
0000
,
0000
0100
0000
0000
0000
1100
0000
0000
0000
0000
0000
0000
0000
0000
0000
0000
,
0000
0000
0000
0000
,
0000
0000
0000
0000
,
0000
0000
0000
0000
,
0000
0000
0000
0000
,
0000
0000
0000
0000
,
0000
0000
0000
0000
,
0000
0000
0000
0000
,
0000
0000
0000
0000
,
0000
0000
0000
0000
,
0000
0000
0000
0000
,
0000
0000
0000
0000
,
0000
0000
0000
0000
,
0000
0000
0000
0000
,
0000
0000
0000
0000
,
0000
0000
0000
0000
,
0000
0000
0000
0000
,
0000
0000
0000
0000
,
0000
0000
0000
0000
,
0000
0000
0000
0000
,
0000
0000
0000
0000
0000
0000
0000
0000
0000
0000
0000
MMMM
0000
0000
0000
0000
;
